<?xml version="1.0" standalone="no"?>
<!DOCTYPE svg PUBLIC "-//W3C//DTD SVG 1.1//EN" "http://www.w3.org/Graphics/SVG/1.1/DTD/svg11.dtd" >
<svg xmlns="http://www.w3.org/2000/svg">
<metadata>
This is a custom SVG webfont generated by Font Squirrel.
Copyright   : aAvanteThickedSubSet Arsenal Company 1997 FAX 0959243775 eMail arsenalitcomsksu Phone 0959245811 Design and Featuring WChufarofsky  MSlutsker
</metadata>
<defs>
<font id="aAvanteTckMedium" horiz-adv-x="1187" >
<font-face units-per-em="2048" ascent="1638" descent="-410" />
<missing-glyph horiz-adv-x="589" />
<glyph unicode=" "  horiz-adv-x="589" />
<glyph unicode="&#x09;" horiz-adv-x="589" />
<glyph unicode="&#xa0;" horiz-adv-x="589" />
<glyph unicode="!" horiz-adv-x="606" d="M201 0v242h207v-242h-207zM201 362v1113h207v-1113h-207z" />
<glyph unicode="&#x22;" horiz-adv-x="626" d="M92 889v567h146v-567h-146zM387 889v567h148v-567h-148z" />
<glyph unicode="#" horiz-adv-x="1595" d="M88 453l55 155h316l88 256h-334l55 154h336l162 459h176l-164 -459h248l166 459h174l-162 -459h305l-57 -154h-305l-90 -256h325l-53 -155h-328l-161 -457h-176l163 457h-252l-161 -457h-174l157 457h-309zM631 606h254l90 258h-256z" />
<glyph unicode="$" d="M135 444h195q12 -244 241 -243q106 0 166 63.5t60 171.5q0 119 -61.5 163t-194.5 79q-362 94 -363 381q0 156 81 267.5t230 137.5v211h189v-213q139 -23 217 -129q72 -98 80 -246h-203q-12 186 -192 187q-92 0 -144.5 -55.5t-52.5 -147.5q0 -106 119 -156l209 -61 q145 -51 221 -151.5t76 -241.5q0 -164 -84 -287q-92 -137 -246 -160v-258h-189v248q-172 27 -263 145.5t-91 294.5z" />
<glyph unicode="%" horiz-adv-x="1818" d="M84 1139q0 150 107.5 257t257.5 107q152 0 259 -106.5t107 -257.5q0 -150 -108.5 -257.5t-257.5 -107.5q-152 0 -258.5 106.5t-106.5 258.5zM252 1139q0 -80 57.5 -137.5t136.5 -57.5q82 0 139.5 56.5t57.5 138.5q0 84 -56.5 139t-140.5 55q-82 0 -138 -56t-56 -138z M438 -33l789 1536h153l-786 -1536h-156zM1006 336q0 152 106.5 258t259.5 106q152 0 258.5 -106.5t106.5 -257.5q0 -150 -107.5 -257.5t-257.5 -107.5q-152 0 -259 107.5t-107 257.5zM1174 336q0 -82 57 -138.5t139 -56.5q80 0 135.5 57.5t55.5 137.5q0 82 -54.5 138 t-136.5 56q-84 0 -140 -55t-56 -139z" />
<glyph unicode="&#x26;" horiz-adv-x="1437" d="M133 414q0 244 273 420q-166 129 -166 303q0 154 104.5 256t257.5 102q139 0 241.5 -105.5t102.5 -244.5q0 -199 -233 -332l217 -203l139 363h225l-202 -504l344 -311l-131 -152l-299 266q-164 -301 -437 -301q-178 0 -307 132.5t-129 310.5zM346 418q0 -96 61.5 -164 t157.5 -68q176 0 281 234l-297 280q-203 -116 -203 -282zM446 1145q0 -104 132 -207q160 88 159 205q0 63 -40 107t-101 44q-63 0 -106.5 -43t-43.5 -106z" />
<glyph unicode="'" horiz-adv-x="327" d="M92 889v567h148v-567h-148z" />
<glyph unicode="(" horiz-adv-x="579" d="M125 201v682q0 461 401 620v-254q-121 -59 -157 -166q-27 -72 -27 -233v-606q0 -172 25 -248q37 -113 159 -182v-248q-221 88 -315 244q-86 143 -86 391z" />
<glyph unicode=")" horiz-adv-x="579" d="M53 -186q121 68 160 182q27 78 27 248v620q0 152 -29 226q-41 100 -158 159v254q401 -164 402 -620v-682q0 -248 -86 -391q-94 -156 -316 -244v248z" />
<glyph unicode="*" horiz-adv-x="1040" d="M106 1110l60 166l272 -94v295h164v-295l272 94l62 -166l-291 -80l195 -242l-140 -104l-180 254l-176 -254l-143 102l192 244z" />
<glyph unicode="+" horiz-adv-x="1728" d="M258 543v149h530v543h152v-543h530v-149h-530v-543h-152v543h-530z" />
<glyph unicode="," horiz-adv-x="598" d="M197 -4v244h206v-220q0 -242 -206 -280v135q47 10 61 43q8 18 8 78h-69z" />
<glyph unicode="-" horiz-adv-x="690" d="M92 457v194h508v-194h-508z" />
<glyph unicode="." horiz-adv-x="598" d="M193 -4v258h210v-258h-210z" />
<glyph unicode="/" horiz-adv-x="579" d="M-59 -193l485 1696h156l-484 -1696h-157z" />
<glyph unicode="0" d="M88 520v432q0 250 127 396q133 156 379 155q240 0 373 -150.5t133 -391.5v-447q0 -248 -127 -391q-135 -152 -379 -152q-248 0 -381 154q-125 145 -125 395zM313 461q0 -281 277 -281q279 0 278 312v491q0 154 -59 227q-66 82 -217 82q-279 0 -279 -309v-522z" />
<glyph unicode="1" d="M246 0v209h254v1083h-193v183h418v-1266h240v-209h-719z" />
<glyph unicode="2" d="M123 0v211l522 500q201 193 201 321q0 262 -260 262q-254 0 -254 -311h-209v8q0 225 129 368.5t352 143.5q213 0 336 -125t123 -338q0 -203 -215 -405l-447 -422h662v-213h-940z" />
<glyph unicode="3" d="M106 498h222q0 -322 250 -322q125 0 200.5 74t75.5 199q0 342 -295 342q-33 0 -143 -29l-84 131l362 375h-499v207h798v-187l-315 -313q399 -57 399 -512q0 -201 -144.5 -346.5t-346.5 -145.5q-217 0 -353 158q-127 148 -127 369z" />
<glyph unicode="4" d="M88 256v195l647 1024h211v-1022h150v-197h-150v-256h-213v256h-645zM305 453h428v702z" />
<glyph unicode="5" d="M78 457h215q14 -119 91 -196t196 -77q135 0 220 90.5t85 227.5q0 139 -85 222t-225 83q-168 0 -241 -129l-191 39l138 758h688v-213h-529l-67 -334q92 86 243 86q211 0 351.5 -150.5t140.5 -363.5q0 -225 -157.5 -377t-383.5 -152q-219 0 -350 133.5t-139 352.5z" />
<glyph unicode="6" d="M80 475q0 193 217 516v2l326 482h241l-325 -494q55 18 102 18q197 0 334 -151q131 -145 131 -344q0 -215 -150.5 -374t-365.5 -159q-203 0 -356.5 150.5t-153.5 353.5zM289 506q0 -127 87 -224.5t212 -97.5q135 0 216 88t81 224q0 133 -80 220t-211 87q-125 0 -215 -86 t-90 -211z" />
<glyph unicode="7" d="M197 1266v209h833v-205l-538 -1270h-232l549 1266h-612z" />
<glyph unicode="8" d="M131 446q0 256 215 373q-150 109 -149 291q0 162 115.5 277.5t277.5 115.5q168 0 284.5 -114.5t116.5 -280.5q0 -186 -155 -289q217 -104 217 -364q0 -205 -131 -344.5t-336 -139.5q-193 0 -324 141t-131 334zM342 449q0 -115 66.5 -193t179.5 -78q115 0 184.5 76 t69.5 190q0 117 -66.5 190t-181.5 73q-117 0 -184.5 -70.5t-67.5 -187.5zM414 1112q0 -88 46 -142.5t132 -54.5t134 52.5t48 140.5q0 84 -48 138t-130 54t-132 -53t-50 -135z" />
<glyph unicode="9" d="M78 969q0 217 150.5 375.5t365.5 158.5q236 0 375 -151q133 -145 133 -383q0 -115 -72 -256q-39 -76 -141 -230l-324 -483h-248l326 492q-49 -20 -100 -21q-197 0 -331 149.5t-134 348.5zM297 979q0 -133 82 -220t213 -87q121 0 208 87t87 208q0 131 -80 226t-209 95 q-139 0 -220 -85t-81 -224z" />
<glyph unicode=":" horiz-adv-x="604" d="M197 0v256h211v-256h-211zM197 799v252h211v-252h-211z" />
<glyph unicode=";" horiz-adv-x="604" d="M197 8v248h211v-225q0 -238 -207 -277v137q47 10 61 41q8 20 8 76h-73zM197 797v254h211v-254h-211z" />
<glyph unicode="&#x3c;" horiz-adv-x="1728" d="M268 553v133l1192 492v-164l-971 -396l971 -395v-160z" />
<glyph unicode="=" horiz-adv-x="1728" d="M258 344v145h1212v-145h-1212zM258 745v148h1212v-148h-1212z" />
<glyph unicode="&#x3e;" horiz-adv-x="1728" d="M268 63v160l971 395l-971 396v164l1192 -492v-133z" />
<glyph unicode="?" horiz-adv-x="1013" d="M25 1042q0 195 122.5 328t315.5 133q188 0 311 -104q133 -111 133 -295q0 -174 -90 -287l-164 -170q-90 -106 -90 -264h-213q0 211 142 385q47 49 133 154q59 80 59 182q0 197 -233 196q-106 0 -166 -77q-53 -70 -54 -181h-206zM350 0v246h207v-246h-207z" />
<glyph unicode="@" horiz-adv-x="2070" d="M106 528q0 420 306 693q293 264 716 264q332 0 572 -178q264 -197 264 -519q0 -266 -149 -460q-164 -213 -422 -213q-203 0 -203 168q-113 -164 -301 -164q-158 0 -240 90t-82 250q0 221 131 383q139 176 355 176q170 0 243 -146l56 111h141l-147 -586q-8 -33 -9 -57 q0 -90 97 -90q162 0 276 186q100 164 100 336q0 279 -211 438q-190 143 -479 144q-360 0 -608 -232q-252 -238 -252 -596q0 -326 229 -518q215 -180 549 -180q348 0 627 195l61 -91q-301 -227 -675 -227q-393 0 -658 211q-287 229 -287 612zM737 453q0 -215 185 -215 q102 0 180 71q72 68 96 172l57 240q-35 180 -192 180q-156 0 -248 -153q-78 -129 -78 -295z" />
<glyph unicode="A" horiz-adv-x="1247" d="M-68 0l578 1475h213l575 -1475h-241l-162 428h-563l-166 -428h-234zM414 641h401l-199 541z" />
<glyph unicode="B" horiz-adv-x="1073" d="M127 0v1475h319q483 0 484 -408q0 -170 -152 -270q111 -37 173.5 -131.5t62.5 -212.5q0 -453 -545 -453h-342zM346 207h160q283 0 282 221q0 248 -282 248h-160v-469zM346 860h64q141 0 206 35q92 49 93 176q0 197 -254 197h-109v-408z" />
<glyph unicode="C" horiz-adv-x="1531" d="M61 745q0 309 222.5 533.5t531.5 224.5q223 0 395 -107.5t263 -308.5h-259q-143 197 -403 197q-213 0 -367.5 -163t-154.5 -376q0 -223 149 -387q154 -170 373 -170q258 0 391 187h271q-197 -403 -662 -404q-315 0 -532.5 228.5t-217.5 545.5z" />
<glyph unicode="D" horiz-adv-x="1404" d="M127 0v1475h477q332 0 535.5 -204t203.5 -538q0 -352 -225 -549q-215 -184 -573 -184h-418zM342 205h254q244 0 385 140t141 384q0 260 -151.5 398.5t-413.5 138.5h-215v-1061z" />
<glyph unicode="E" horiz-adv-x="1015" d="M129 0v1475h770v-203h-551v-430h551v-201h-551v-432h551v-209h-770z" />
<glyph unicode="F" horiz-adv-x="956" d="M129 0v1475h729v-203h-512v-430h512v-201h-512v-641h-217z" />
<glyph unicode="G" horiz-adv-x="1626" d="M61 743q0 317 224.5 538.5t541.5 221.5q471 0 650 -407h-271q-109 188 -395 188q-213 0 -367.5 -163t-154.5 -378q0 -244 139 -395q143 -160 383 -160q385 0 496 351h-660v209h918q-25 -352 -209 -558q-199 -219 -545 -219q-332 0 -541 219t-209 553z" />
<glyph unicode="H" horiz-adv-x="1282" d="M125 0v1475h221v-623h590v623h221v-1475h-221v637h-590v-637h-221z" />
<glyph unicode="I" horiz-adv-x="473" d="M127 0v1475h221v-1475h-221z" />
<glyph unicode="J" horiz-adv-x="919" d="M4 338h217q0 -162 170 -162q121 0 157 65.5t36 209.5v1024h219v-1037q0 -213 -101 -334q-109 -133 -315 -133q-178 0 -280.5 95.5t-102.5 271.5z" />
<glyph unicode="K" horiz-adv-x="1134" d="M127 0v1475h221v-727l555 727h266l-575 -736l563 -739h-280l-529 719v-719h-221z" />
<glyph unicode="L" horiz-adv-x="872" d="M129 0v1475h219v-1266h483v-209h-702z" />
<glyph unicode="M" horiz-adv-x="1746" d="M129 0v1475h322l421 -1127l424 1127h316v-1475h-205l12 1255l-469 -1255h-155l-469 1255l14 -1255h-211z" />
<glyph unicode="N" horiz-adv-x="1400" d="M129 0v1475h223l715 -1100l-12 1100h217v-1475h-207l-731 1135l14 -1135h-219z" />
<glyph unicode="O" horiz-adv-x="1636" d="M61 745q0 309 226.5 533.5t535.5 224.5q311 0 531.5 -223t220.5 -535q0 -322 -217 -549t-539 -227q-317 0 -537.5 229.5t-220.5 546.5zM291 745q0 -223 151 -387q156 -170 377 -170q229 0 381 168q145 162 146 394q0 213 -157 373.5t-370 160.5q-215 0 -371.5 -161 t-156.5 -378z" />
<glyph unicode="P" horiz-adv-x="1067" d="M127 0v1475h403q496 0 496 -435q0 -217 -152 -340q-141 -111 -364 -110h-164v-590h-219zM346 795h148q145 0 219 43q92 55 92 190q0 244 -303 244h-156v-477z" />
<glyph unicode="Q" horiz-adv-x="1632" d="M61 745q0 309 222.5 533.5t531.5 224.5q319 0 536.5 -227t217.5 -547q0 -289 -174 -485q92 -43 215 -43v-211q-217 23 -389 100q-190 -119 -406 -119q-319 0 -536.5 227.5t-217.5 546.5zM289 745q0 -223 151 -387q156 -170 377 -170q229 0 381 168q145 162 145 394 q0 213 -156.5 373.5t-369.5 160.5q-215 0 -371.5 -161t-156.5 -378z" />
<glyph unicode="R" horiz-adv-x="1171" d="M127 0v1475h428q252 0 391 -111q154 -123 154 -369q0 -172 -120 -300t-292 -132l416 -563h-279l-477 672v-672h-221zM348 713h148q184 0 272 49q117 68 117 237q0 162 -119 224q-88 47 -264 47h-154v-557z" />
<glyph unicode="S" horiz-adv-x="989" d="M45 432h211q0 -106 55 -178q59 -80 164 -80q111 0 174.5 70.5t63.5 183.5q0 137 -162 211l-297 131q-162 102 -162 305q0 186 112.5 307t297.5 121q176 0 280 -112q98 -106 109 -287h-207q-4 86 -54 140t-134 54q-195 0 -195 -190q0 -41 14 -76q25 -63 138 -117 q45 -23 176 -69q303 -109 303 -397q0 -209 -123 -344.5t-330 -135.5q-193 0 -313.5 134t-120.5 329z" />
<glyph unicode="T" horiz-adv-x="849" d="M25 1270v205h802v-205h-290v-1270h-224v1270h-288z" />
<glyph unicode="U" horiz-adv-x="1171" d="M111 539v936h223v-938q0 -174 43 -252q57 -111 215 -111q147 0 205 115q39 80 39 248v938h221v-936q0 -569 -461 -570q-485 1 -485 570z" />
<glyph unicode="V" horiz-adv-x="1198" d="M-39 1475h234l405 -1194l406 1194h231l-532 -1475h-211z" />
<glyph unicode="W" horiz-adv-x="1748" d="M-35 1475h230l313 -1119l283 1119h167l279 -1119l315 1119h228l-447 -1475h-200l-261 1081l-260 -1081h-196z" />
<glyph unicode="X" horiz-adv-x="1214" d="M-10 0l491 745l-479 730h258l348 -564l344 564h260l-479 -730l490 -745h-256l-359 567l-362 -567h-256z" />
<glyph unicode="Y" horiz-adv-x="1026" d="M-49 1475h244l319 -699l317 699h246l-454 -943v-532h-224v545z" />
<glyph unicode="Z" horiz-adv-x="989" d="M41 0v215l637 1047h-596v213h854v-191l-660 -1075h672v-209h-907z" />
<glyph unicode="[" horiz-adv-x="579" d="M125 -418v1891h395v-168h-194v-1553h194v-170h-395z" />
<glyph unicode="\" horiz-adv-x="579" d="M-2 1503h158l487 -1696h-160z" />
<glyph unicode="]" horiz-adv-x="579" d="M61 -248h191v1553h-191v168h394v-1891h-394v170z" />
<glyph unicode="^" horiz-adv-x="2070" d="M418 909l520 570h192l521 -570h-193l-424 422l-424 -422h-192z" />
<glyph unicode="_" horiz-adv-x="1040" d="M0 -340h1040v-154h-1040v154z" />
<glyph unicode="`" horiz-adv-x="1040" d="M250 1612h213l207 -361h-127z" />
<glyph unicode="a" horiz-adv-x="1261" d="M57 530q0 227 157 387t382 160q217 0 358 -147v121h197v-1051h-188v129q-152 -152 -355 -152q-236 0 -393.5 158.5t-157.5 394.5zM260 530q0 -152 104.5 -260t253.5 -108q137 0 241 109.5t104 248.5q0 145 -101.5 257t-247.5 112q-147 0 -250.5 -106t-103.5 -253z" />
<glyph unicode="b" horiz-adv-x="1261" d="M104 0v1577h195v-643q152 145 363 145q229 0 384.5 -158.5t155.5 -388.5q0 -238 -157.5 -396.5t-395.5 -158.5q-193 0 -354 154v-131h-191zM295 522q0 -139 104.5 -248.5t241.5 -109.5q154 0 255 107.5t101 260.5q0 147 -103 253t-251 106q-145 0 -246.5 -112 t-101.5 -257z" />
<glyph unicode="c" horiz-adv-x="1157" d="M53 524q0 236 158 395.5t393 159.5q379 0 506 -383h-213q-90 195 -309 195q-145 0 -238.5 -107.5t-93.5 -257.5q0 -147 97.5 -257.5t242.5 -110.5q225 0 301 207h213q-137 -393 -514 -394q-236 0 -389.5 158.5t-153.5 394.5z" />
<glyph unicode="d" horiz-adv-x="1261" d="M55 532q0 227 158 387t383 160q215 0 360 -145v643h197v-1577h-190v131q-150 -154 -355 -154q-236 0 -394.5 159.5t-158.5 395.5zM260 532q0 -154 103.5 -261t254.5 -107q137 0 241 109.5t104 248.5q0 145 -101.5 257t-247.5 112q-147 0 -250.5 -106t-103.5 -253z" />
<glyph unicode="e" d="M53 526q0 227 158 391t383 164q176 0 309 -95t193 -261q39 -109 39 -274h-875q25 -125 118 -208t218 -83q190 0 291 178h219q-156 -367 -510 -367q-223 0 -383 165t-160 390zM266 631h656q-78 260 -322 260q-121 0 -210 -70.5t-124 -189.5z" />
<glyph unicode="f" horiz-adv-x="546" d="M39 874v179h117v198q0 176 94 254q84 72 264 72v-182q-92 0 -127 -31t-35 -121v-190h162v-179h-162v-874h-196v874h-117z" />
<glyph unicode="g" horiz-adv-x="1261" d="M57 528q0 227 156 387t383 160q215 0 360 -145v119h195v-916q0 -279 -125 -436q-137 -174 -408 -174q-242 0 -362.5 102.5t-146.5 257.5h225q33 -178 274 -178q166 0 256 101.5t90 269.5v47q-143 -147 -346 -148q-242 0 -396.5 155.5t-154.5 397.5zM260 528 q0 -160 99.5 -263t258.5 -103q139 0 242 108.5t103 247.5q0 145 -101.5 257t-247.5 112q-147 0 -250.5 -106t-103.5 -253z" />
<glyph unicode="h" horiz-adv-x="1107" d="M111 0v1577h198v-633q94 125 285 125q203 0 309 -135q94 -121 94 -330v-604h-198v545q0 338 -234 338q-141 0 -198.5 -106.5t-57.5 -297.5v-479h-198z" />
<glyph unicode="i" horiz-adv-x="415" d="M111 0v1053h194v-1053h-194zM111 1272v217h194v-217h-194z" />
<glyph unicode="j" horiz-adv-x="430" d="M-43 -297q92 0 128 35t36 127v1188h196l2 -1203q0 -328 -362 -327v180zM121 1270v217h196v-217h-196z" />
<glyph unicode="k" horiz-adv-x="935" d="M111 0v1577h194v-999l367 475h231l-387 -498l457 -555h-250l-418 524v-524h-194z" />
<glyph unicode="l" horiz-adv-x="417" d="M109 0v1577h194v-1577h-194z" />
<glyph unicode="m" horiz-adv-x="1693" d="M115 0v1051h174v-113q102 129 264 129q213 0 311 -172q102 172 324 172q186 0 293 -121q100 -115 100 -305v-641h-197v610q0 119 -47 193q-57 88 -170 88q-137 0 -186 -109q-35 -76 -35 -231v-551h-190v530q0 158 -35 240q-53 121 -191 121q-231 0 -231 -352v-539h-184z " />
<glyph unicode="n" horiz-adv-x="1124" d="M111 0v1051h188v-113q113 129 289 129q213 0 323 -129q100 -121 101 -338v-600h-195v559q0 322 -248 322q-162 0 -221 -131q-41 -88 -41 -273v-477h-196z" />
<glyph unicode="o" horiz-adv-x="1196" d="M51 524q0 223 158 393t379 170t389 -163.5t168 -384.5q0 -227 -160 -397.5t-387 -170.5t-387 163t-160 390zM254 526q0 -150 98.5 -255t245.5 -105t245.5 106.5t98.5 253.5q0 152 -98.5 258.5t-249.5 106.5q-150 0 -245 -106.5t-95 -258.5z" />
<glyph unicode="p" horiz-adv-x="1261" d="M106 -453v1502h197v-123q150 145 346 145q238 0 394.5 -157.5t156.5 -395.5q0 -229 -154.5 -388t-383.5 -159q-213 0 -363 148v-572h-193zM295 528q0 -147 101.5 -256.5t246.5 -109.5q147 0 250.5 104.5t103.5 251.5q0 152 -102 260.5t-254 108.5q-139 0 -242.5 -110 t-103.5 -249z" />
<glyph unicode="q" horiz-adv-x="1261" d="M57 518q0 238 158 395.5t395 157.5q197 0 346 -145v123h197v-1502h-197v572q-141 -147 -356 -148q-227 0 -385 160t-158 387zM262 518q0 -145 103.5 -250.5t248.5 -105.5t247 109.5t102 256.5q0 141 -102.5 250t-242.5 109q-152 0 -254 -108.5t-102 -260.5z" />
<glyph unicode="r" horiz-adv-x="569" d="M113 0v1051h182v-113q96 129 248 129v-203q-236 0 -236 -278v-586h-194z" />
<glyph unicode="s" horiz-adv-x="765" d="M39 346h188q0 -78 37 -131q43 -59 117 -59q61 0 103 38.5t42 100.5q0 57 -25.5 91t-97.5 60q-96 37 -159 72q-86 47 -122 103.5t-36 152.5q0 127 91 219t218 92q141 0 222 -83.5t81 -225.5h-188q0 125 -121 125q-51 0 -84 -32.5t-33 -84.5q0 -82 154 -139 q203 -74 256 -180q33 -66 33 -162q0 -141 -98.5 -235.5t-239.5 -94.5q-156 0 -250 111q-88 104 -88 262z" />
<glyph unicode="t" horiz-adv-x="542" d="M27 872v181h147v338h195v-338h147v-181h-147v-872h-195v872h-147z" />
<glyph unicode="u" horiz-adv-x="1103" d="M106 446v605h193v-551q0 -334 236 -334q152 0 206 102q51 96 52 301v482h194v-1051h-188v111q-106 -133 -275 -134q-209 0 -317 134q-101 122 -101 335z" />
<glyph unicode="v" horiz-adv-x="966" d="M2 1051h209l272 -754l281 754h205l-420 -1051h-148z" />
<glyph unicode="w" horiz-adv-x="1390" d="M10 1051h209l209 -678l209 678h121l205 -678l213 678h206l-364 -1051h-111l-215 694l-209 -694h-110z" />
<glyph unicode="x" horiz-adv-x="892" d="M-23 0l355 547l-314 504h220l213 -353l221 353h227l-334 -498l336 -553h-217l-242 391l-247 -391h-218z" />
<glyph unicode="y" horiz-adv-x="1024" d="M14 1049h211l310 -770l290 770h211l-587 -1502h-205l184 486z" />
<glyph unicode="z" horiz-adv-x="788" d="M18 0v156l500 716h-436v179h639v-199l-467 -668h496v-184h-732z" />
<glyph unicode="{" horiz-adv-x="1040" d="M170 461v155q164 0 221 48q66 55 66 217v247q0 236 86 308q68 57 295 57h43v-156q-90 0 -109 -2q-66 -8 -94 -41q-39 -45 -39 -186v-244q0 -139 -31 -202q-43 -90 -164 -125q121 -33 164 -123q31 -66 31 -205v-242q0 -139 35 -182q29 -35 96 -45q23 -2 111 -2v-156h-47 q-223 0 -295 60q-82 68 -82 305v246q0 141 -47 200q-53 68 -191 68h-49z" />
<glyph unicode="|" horiz-adv-x="1038" d="M0 -477h10v-10h-10v10zM442 -453v2034h158v-2034h-158z" />
<glyph unicode="}" horiz-adv-x="1040" d="M160 -262q170 0 209 47q33 41 32 182v242q0 139 31 205q43 90 164 123q-117 35 -162 122q-33 68 -33 205v244q0 143 -36 186q-29 33 -97 41q-18 2 -108 2v156h43q227 0 295 -57q86 -72 86 -308v-247q0 -137 49 -197q55 -68 188 -68h49v-155h-49q-135 0 -186 -64.5 t-51 -203.5v-246q0 -238 -80 -305q-70 -59 -344 -60v156z" />
<glyph unicode="~" horiz-adv-x="1728" d="M180 451v165q215 147 393 148q123 0 345 -80q158 -57 239 -57q172 0 393 161v-167q-207 -147 -397 -148q-49 0 -131 23l-223 71q-143 45 -226 45q-162 1 -393 -161z" />
<glyph unicode="&#xa4;" horiz-adv-x="1255" d="M80 436l209 207q-84 102 -84 252q0 141 84 254l-209 211l86 84l209 -207q113 86 254 86q145 0 256 -86l207 207l90 -84l-209 -211q82 -113 82 -254q0 -145 -82 -252l209 -207l-90 -88l-207 209q-111 -90 -252 -90q-143 0 -258 90l-209 -209zM330 899q0 -127 88 -215 t215 -88q123 0 211 90t88 213q0 125 -87 212t-212 87q-127 0 -215 -86t-88 -213z" />
<glyph unicode="&#xa6;" horiz-adv-x="1038" d="M0 -477h10v-10h-10v10zM442 -354v772h158v-772h-158zM442 676v772h158v-772h-158z" />
<glyph unicode="&#xa7;" horiz-adv-x="1040" d="M82 692q0 166 176 291q-90 76 -90 203q0 145 100 233q94 84 242 84q164 0 258 -88t94 -250h-178q-8 176 -174 176q-156 0 -156 -135q0 -76 64 -119q57 -37 334 -186q106 -57 153 -121q55 -74 56 -184q0 -88 -51.5 -166t-131.5 -115q98 -86 99 -219q0 -147 -113 -239 q-104 -84 -256 -84q-160 0 -258 93t-98 253h182q0 -182 190 -182q72 0 121 35.5t49 105.5q0 72 -82 135q-31 25 -143 88l-184 102q-203 113 -203 289zM270 745q0 -68 60 -120q33 -29 116 -78l220 -125q100 57 100 149q0 109 -176 203l-219 117q-101 -62 -101 -146z" />
<glyph unicode="&#xa9;" horiz-adv-x="1728" d="M117 737q0 307 219 526.5t526 219.5q311 0 530.5 -217t219.5 -529q0 -150 -56 -284q-84 -203 -279.5 -333t-414.5 -130q-303 0 -524 221t-221 526zM223 737q0 -266 187.5 -452.5t453.5 -186.5q127 0 244 49q184 78 289.5 234t105.5 356q0 272 -183 455.5t-456 183.5 q-264 0 -448 -182q-193 -191 -193 -457zM467 741q0 193 102 318q113 137 299 137q137 0 234 -72q104 -76 115 -209h-158q-20 160 -201 160q-121 0 -176 -117q-43 -88 -43 -221q0 -135 47 -221q59 -109 182 -108q170 0 203 176h154q-8 -143 -117 -226q-100 -78 -246 -77 q-195 0 -301 137q-94 122 -94 323z" />
<glyph unicode="&#xaa;" horiz-adv-x="1261" d="M57 530q0 227 157 387t382 160q217 0 358 -147v121h197v-1051h-188v129q-152 -152 -355 -152q-236 0 -393.5 158.5t-157.5 394.5zM260 530q0 -152 104.5 -260t253.5 -108q137 0 241 109.5t104 248.5q0 145 -101.5 257t-247.5 112q-147 0 -250.5 -106t-103.5 -253z" />
<glyph unicode="&#xab;" horiz-adv-x="1048" d="M127 559l254 315h160l-244 -319l244 -315h-160zM481 559l254 315h164l-246 -319l246 -315h-164z" />
<glyph unicode="&#xac;" horiz-adv-x="1728" d="M258 725v147h1212v-512h-143v365h-1069z" />
<glyph unicode="&#xad;" horiz-adv-x="690" d="M92 457v194h508v-194h-508z" />
<glyph unicode="&#xae;" horiz-adv-x="1728" d="M117 737q0 221 129 415t334 278q131 53 282 53q309 0 529.5 -218t220.5 -528q0 -154 -56 -286q-84 -205 -278.5 -333t-415.5 -128q-301 0 -523 223t-222 524zM223 737q0 -262 187.5 -450.5t447.5 -188.5q270 0 457.5 180.5t187.5 450.5q0 279 -180 463t-459 184 q-268 0 -446 -180q-195 -197 -195 -459zM561 326v852h322q354 0 354 -238q0 -186 -188 -229l186 -385h-186l-170 358h-150v-358h-168zM729 795h129q209 0 209 127q0 141 -213 141h-125v-268z" />
<glyph unicode="&#xb0;" horiz-adv-x="686" d="M49 1184q0 121 87 207t208 86q123 0 208 -85t85 -208t-86 -209t-209 -86t-208 86t-85 209zM154 1184q0 -82 54 -137.5t136 -55.5t135 55.5t53 137.5t-53 136t-135 54q-80 0 -135 -55t-55 -135z" />
<glyph unicode="&#xb1;" horiz-adv-x="1728" d="M258 29v149h1212v-149h-1212zM258 717v147h530v342h152v-342h530v-147h-530v-342h-152v342h-530z" />
<glyph unicode="&#xb2;" d="M123 0v211l522 500q201 193 201 321q0 262 -260 262q-254 0 -254 -311h-209v8q0 225 129 368.5t352 143.5q213 0 336 -125t123 -338q0 -203 -215 -405l-447 -422h662v-213h-940z" />
<glyph unicode="&#xb3;" d="M106 498h222q0 -322 250 -322q125 0 200.5 74t75.5 199q0 342 -295 342q-33 0 -143 -29l-84 131l362 375h-499v207h798v-187l-315 -313q399 -57 399 -512q0 -201 -144.5 -346.5t-346.5 -145.5q-217 0 -353 158q-127 148 -127 369z" />
<glyph unicode="&#xb5;" horiz-adv-x="1167" d="M-68 -432l318 1515h188l-127 -608q-14 -70 -14 -133q0 -203 197 -203q152 0 235 131q57 90 94 271l113 542h190l-157 -741q-4 -8 -11 -25q-14 -47 -14 -106q0 -47 33 -59q14 -4 74 -5l-31 -151q-72 -10 -113 -10q-119 0 -153 123q-94 -125 -269 -125q-156 0 -256 112 l-108 -528h-189z" />
<glyph unicode="&#x3bc;" horiz-adv-x="1167" d="M-68 -432l318 1515h188l-127 -608q-14 -70 -14 -133q0 -203 197 -203q152 0 235 131q57 90 94 271l113 542h190l-157 -741q-4 -8 -11 -25q-14 -47 -14 -106q0 -47 33 -59q14 -4 74 -5l-31 -151q-72 -10 -113 -10q-119 0 -153 123q-94 -125 -269 -125q-156 0 -256 112 l-108 -528h-189z" />
<glyph unicode="&#xb6;" horiz-adv-x="1040" d="M68 1143q0 168 118 264q111 92 281 92h508v-98h-123v-1401h-119v1401h-168v-1401h-123v788q-164 10 -264 99q-110 96 -110 256z" />
<glyph unicode="&#xb7;" horiz-adv-x="598" d="M180 737q0 49 34 83t83 34q51 0 85 -33t34 -84q0 -49 -35 -82.5t-84 -33.5q-47 0 -82 34.5t-35 81.5z" />
<glyph unicode="&#x2219;" horiz-adv-x="598" d="M180 737q0 49 34 83t83 34q51 0 85 -33t34 -84q0 -49 -35 -82.5t-84 -33.5q-47 0 -82 34.5t-35 81.5z" />
<glyph unicode="&#xb9;" d="M246 0v209h254v1083h-193v183h418v-1266h240v-209h-719z" />
<glyph unicode="&#xba;" horiz-adv-x="1196" d="M51 524q0 223 158 393t379 170t389 -163.5t168 -384.5q0 -227 -160 -397.5t-387 -170.5t-387 163t-160 390zM254 526q0 -150 98.5 -255t245.5 -105t245.5 106.5t98.5 253.5q0 152 -98.5 258.5t-249.5 106.5q-150 0 -245 -106.5t-95 -258.5z" />
<glyph unicode="&#xbb;" horiz-adv-x="1048" d="M150 240l247 315l-247 319h163l254 -315l-254 -319h-163zM508 240l246 315l-246 319h160l254 -315l-254 -319h-160z" />
<glyph unicode="&#xc0;" horiz-adv-x="1247" d="M260 1987h213l207 -361h-127zM-68 0l578 1475h213l575 -1475h-241l-162 428h-563l-166 -428h-234zM414 641h401l-199 541z" />
<glyph unicode="&#xc2;" horiz-adv-x="1247" d="M0 1626l520 570h192l521 -570h-193l-424 422l-424 -422h-192zM-68 0l578 1475h213l575 -1475h-241l-162 428h-563l-166 -428h-234zM414 641h401l-199 541z" />
<glyph unicode="&#xc3;" horiz-adv-x="1247" d="M-70 1627v165q215 147 393 148q123 0 345 -80q158 -57 239 -57q172 0 393 161v-167q-207 -147 -397 -148q-49 0 -131 23l-223 71q-143 45 -226 45q-162 1 -393 -161zM-68 0l578 1475h213l575 -1475h-241l-162 428h-563l-166 -428h-234zM414 641h401l-199 541z" />
<glyph unicode="&#xc5;" horiz-adv-x="1247" d="M323 1778q0 121 87 207t208 86q123 0 208 -85t85 -208t-86 -209t-209 -86t-208 86t-85 209zM428 1778q0 -82 54 -137.5t136 -55.5t135 55.5t53 137.5t-53 136t-135 54q-80 0 -135 -55t-55 -135zM-68 0l578 1475h213l575 -1475h-241l-162 428h-563l-166 -428h-234z M414 641h401l-199 541z" />
<glyph unicode="&#xc8;" horiz-adv-x="1015" d="M158 1987h213l207 -361h-127zM129 0v1475h770v-203h-551v-430h551v-201h-551v-432h551v-209h-770z" />
<glyph unicode="&#xca;" horiz-adv-x="1015" d="M-102 1626l520 570h192l521 -570h-193l-424 422l-424 -422h-192zM129 0v1475h770v-203h-551v-430h551v-201h-551v-432h551v-209h-770z" />
<glyph unicode="&#xcc;" horiz-adv-x="473" d="M-119 1987h213l207 -361h-127zM127 0v1475h221v-1475h-221z" />
<glyph unicode="&#xce;" horiz-adv-x="473" d="M-379 1626l520 570h192l521 -570h-193l-424 422l-424 -422h-192zM127 0v1475h221v-1475h-221z" />
<glyph unicode="&#xd1;" horiz-adv-x="1400" d="M16 1627v165q215 147 393 148q123 0 345 -80q158 -57 239 -57q172 0 393 161v-167q-207 -147 -397 -148q-49 0 -131 23l-223 71q-143 45 -226 45q-162 1 -393 -161zM129 0v1475h223l715 -1100l-12 1100h217v-1475h-207l-731 1135l14 -1135h-219z" />
<glyph unicode="&#xd2;" horiz-adv-x="1636" d="M467 1987h213l207 -361h-127zM61 745q0 309 226.5 533.5t535.5 224.5q311 0 531.5 -223t220.5 -535q0 -322 -217 -549t-539 -227q-317 0 -537.5 229.5t-220.5 546.5zM291 745q0 -223 151 -387q156 -170 377 -170q229 0 381 168q145 162 146 394q0 213 -157 373.5 t-370 160.5q-215 0 -371.5 -161t-156.5 -378z" />
<glyph unicode="&#xd4;" horiz-adv-x="1636" d="M207 1626l520 570h192l521 -570h-193l-424 422l-424 -422h-192zM61 745q0 309 226.5 533.5t535.5 224.5q311 0 531.5 -223t220.5 -535q0 -322 -217 -549t-539 -227q-317 0 -537.5 229.5t-220.5 546.5zM291 745q0 -223 151 -387q156 -170 377 -170q229 0 381 168 q145 162 146 394q0 213 -157 373.5t-370 160.5q-215 0 -371.5 -161t-156.5 -378z" />
<glyph unicode="&#xd5;" horiz-adv-x="1636" d="M139 1627v165q215 147 393 148q123 0 345 -80q158 -57 239 -57q172 0 393 161v-167q-207 -147 -397 -148q-49 0 -131 23l-223 71q-143 45 -226 45q-162 1 -393 -161zM61 745q0 309 226.5 533.5t535.5 224.5q311 0 531.5 -223t220.5 -535q0 -322 -217 -549t-539 -227 q-317 0 -537.5 229.5t-220.5 546.5zM291 745q0 -223 151 -387q156 -170 377 -170q229 0 381 168q145 162 146 394q0 213 -157 373.5t-370 160.5q-215 0 -371.5 -161t-156.5 -378z" />
<glyph unicode="&#xd9;" horiz-adv-x="1171" d="M227 1987h213l207 -361h-127zM111 539v936h223v-938q0 -174 43 -252q57 -111 215 -111q147 0 205 115q39 80 39 248v938h221v-936q0 -569 -461 -570q-485 1 -485 570z" />
<glyph unicode="&#xdb;" horiz-adv-x="1171" d="M-33 1626l520 570h192l521 -570h-193l-424 422l-424 -422h-192zM111 539v936h223v-938q0 -174 43 -252q57 -111 215 -111q147 0 205 115q39 80 39 248v938h221v-936q0 -569 -461 -570q-485 1 -485 570z" />
<glyph unicode="&#xe0;" horiz-adv-x="1261" d="M240 1571h213l207 -361h-127zM57 530q0 227 157 387t382 160q217 0 358 -147v121h197v-1051h-188v129q-152 -152 -355 -152q-236 0 -393.5 158.5t-157.5 394.5zM260 530q0 -152 104.5 -260t253.5 -108q137 0 241 109.5t104 248.5q0 145 -101.5 257t-247.5 112 q-147 0 -250.5 -106t-103.5 -253z" />
<glyph unicode="&#xe2;" horiz-adv-x="1261" d="M-20 1210l520 570h192l521 -570h-193l-424 422l-424 -422h-192zM57 530q0 227 157 387t382 160q217 0 358 -147v121h197v-1051h-188v129q-152 -152 -355 -152q-236 0 -393.5 158.5t-157.5 394.5zM260 530q0 -152 104.5 -260t253.5 -108q137 0 241 109.5t104 248.5 q0 145 -101.5 257t-247.5 112q-147 0 -250.5 -106t-103.5 -253z" />
<glyph unicode="&#xe3;" horiz-adv-x="1261" d="M-90 1211v165q215 147 393 148q123 0 345 -80q158 -57 239 -57q172 0 393 161v-167q-207 -147 -397 -148q-49 0 -131 23l-223 71q-143 45 -226 45q-162 1 -393 -161zM57 530q0 227 157 387t382 160q217 0 358 -147v121h197v-1051h-188v129q-152 -152 -355 -152 q-236 0 -393.5 158.5t-157.5 394.5zM260 530q0 -152 104.5 -260t253.5 -108q137 0 241 109.5t104 248.5q0 145 -101.5 257t-247.5 112q-147 0 -250.5 -106t-103.5 -253z" />
<glyph unicode="&#xe5;" horiz-adv-x="1261" d="M303 1506q0 121 87 207t208 86q123 0 208 -85t85 -208t-86 -209t-209 -86t-208 86t-85 209zM408 1506q0 -82 54 -137.5t136 -55.5t135 55.5t53 137.5t-53 136t-135 54q-80 0 -135 -55t-55 -135zM57 530q0 227 157 387t382 160q217 0 358 -147v121h197v-1051h-188v129 q-152 -152 -355 -152q-236 0 -393.5 158.5t-157.5 394.5zM260 530q0 -152 104.5 -260t253.5 -108q137 0 241 109.5t104 248.5q0 145 -101.5 257t-247.5 112q-147 0 -250.5 -106t-103.5 -253z" />
<glyph unicode="&#xe8;" d="M238 1571h213l207 -361h-127zM53 526q0 227 158 391t383 164q176 0 309 -95t193 -261q39 -109 39 -274h-875q25 -125 118 -208t218 -83q190 0 291 178h219q-156 -367 -510 -367q-223 0 -383 165t-160 390zM266 631h656q-78 260 -322 260q-121 0 -210 -70.5t-124 -189.5z " />
<glyph unicode="&#xea;" d="M-22 1210l520 570h192l521 -570h-193l-424 422l-424 -422h-192zM53 526q0 227 158 391t383 164q176 0 309 -95t193 -261q39 -109 39 -274h-875q25 -125 118 -208t218 -83q190 0 291 178h219q-156 -367 -510 -367q-223 0 -383 165t-160 390zM266 631h656q-78 260 -322 260 q-121 0 -210 -70.5t-124 -189.5z" />
<glyph unicode="&#xec;" horiz-adv-x="415" d="M-147 1972h213l207 -361h-127zM111 0v1053h194v-1053h-194zM111 1272v217h194v-217h-194z" />
<glyph unicode="&#xee;" horiz-adv-x="415" d="M-409 1611l520 570h192l521 -570h-193l-424 422l-424 -422h-192zM111 0v1053h194v-1053h-194zM111 1272v217h194v-217h-194z" />
<glyph unicode="&#xf1;" horiz-adv-x="1124" d="M-123 1211v165q215 147 393 148q123 0 345 -80q158 -57 239 -57q172 0 393 161v-167q-207 -147 -397 -148q-49 0 -131 23l-223 71q-143 45 -226 45q-162 1 -393 -161zM111 0v1051h188v-113q113 129 289 129q213 0 323 -129q100 -121 101 -338v-600h-195v559 q0 322 -248 322q-162 0 -221 -131q-41 -88 -41 -273v-477h-196z" />
<glyph unicode="&#xf2;" horiz-adv-x="1196" d="M232 1571h213l207 -361h-127zM51 524q0 223 158 393t379 170t389 -163.5t168 -384.5q0 -227 -160 -397.5t-387 -170.5t-387 163t-160 390zM254 526q0 -150 98.5 -255t245.5 -105t245.5 106.5t98.5 253.5q0 152 -98.5 258.5t-249.5 106.5q-150 0 -245 -106.5t-95 -258.5z " />
<glyph unicode="&#xf4;" horiz-adv-x="1196" d="M-28 1210l520 570h192l521 -570h-193l-424 422l-424 -422h-192zM51 524q0 223 158 393t379 170t389 -163.5t168 -384.5q0 -227 -160 -397.5t-387 -170.5t-387 163t-160 390zM254 526q0 -150 98.5 -255t245.5 -105t245.5 106.5t98.5 253.5q0 152 -98.5 258.5t-249.5 106.5 q-150 0 -245 -106.5t-95 -258.5z" />
<glyph unicode="&#xf5;" horiz-adv-x="1196" d="M-99 1211v165q215 147 393 148q123 0 345 -80q158 -57 239 -57q172 0 393 161v-167q-207 -147 -397 -148q-49 0 -131 23l-223 71q-143 45 -226 45q-162 1 -393 -161zM51 524q0 223 158 393t379 170t389 -163.5t168 -384.5q0 -227 -160 -397.5t-387 -170.5t-387 163 t-160 390zM254 526q0 -150 98.5 -255t245.5 -105t245.5 106.5t98.5 253.5q0 152 -98.5 258.5t-249.5 106.5q-150 0 -245 -106.5t-95 -258.5z" />
<glyph unicode="&#xf9;" horiz-adv-x="1103" d="M191 1571h213l207 -361h-127zM106 446v605h193v-551q0 -334 236 -334q152 0 206 102q51 96 52 301v482h194v-1051h-188v111q-106 -133 -275 -134q-209 0 -317 134q-101 122 -101 335z" />
<glyph unicode="&#xfb;" horiz-adv-x="1103" d="M-69 1210l520 570h192l521 -570h-193l-424 422l-424 -422h-192zM106 446v605h193v-551q0 -334 236 -334q152 0 206 102q51 96 52 301v482h194v-1051h-188v111q-106 -133 -275 -134q-209 0 -317 134q-101 122 -101 335z" />
<glyph unicode="&#x152;" horiz-adv-x="2652" d="M1765 0v1475h770v-203h-551v-430h551v-201h-551v-432h551v-209h-770zM61 745q0 309 226.5 533.5t535.5 224.5q311 0 531.5 -223t220.5 -535q0 -322 -217 -549t-539 -227q-317 0 -537.5 229.5t-220.5 546.5zM291 745q0 -223 151 -387q156 -170 377 -170q229 0 381 168 q145 162 146 394q0 213 -157 373.5t-370 160.5q-215 0 -371.5 -161t-156.5 -378z" />
<glyph unicode="&#x153;" horiz-adv-x="2383" d="M1249 526q0 227 158 391t383 164q176 0 309 -95t193 -261q39 -109 39 -274h-875q25 -125 118 -208t218 -83q190 0 291 178h219q-156 -367 -510 -367q-223 0 -383 165t-160 390zM1462 631h656q-78 260 -322 260q-121 0 -210 -70.5t-124 -189.5zM51 524q0 223 158 393 t379 170t389 -163.5t168 -384.5q0 -227 -160 -397.5t-387 -170.5t-387 163t-160 390zM254 526q0 -150 98.5 -255t245.5 -105t245.5 106.5t98.5 253.5q0 152 -98.5 258.5t-249.5 106.5q-150 0 -245 -106.5t-95 -258.5z" />
<glyph unicode="&#x2c6;" horiz-adv-x="2070" d="M418 909l520 570h192l521 -570h-193l-424 422l-424 -422h-192z" />
<glyph unicode="&#x2dc;" horiz-adv-x="589" d="M-684 123v165q215 147 393 148q123 0 345 -80q158 -57 239 -57q172 0 393 161v-167q-207 -147 -397 -148q-49 0 -131 23l-223 71q-143 45 -226 45q-162 1 -393 -161z" />
<glyph unicode="&#x2013;" horiz-adv-x="1040" d="M0 477v156h1040v-156h-1040z" />
<glyph unicode="&#x2014;" horiz-adv-x="2070" d="M0 477v156h2071v-156h-2071z" />
<glyph unicode="&#x2018;" horiz-adv-x="481" d="M135 1004v219q0 123 48 190.5t165 91.5v-139q-45 -12 -59 -41q-10 -20 -10 -74h69v-247h-213z" />
<glyph unicode="&#x2019;" horiz-adv-x="481" d="M135 973v139q45 10 60 39q10 20 10 72h-70v254h213v-222q0 -125 -47 -190t-166 -92z" />
<glyph unicode="&#x201a;" horiz-adv-x="481" d="M135 -2v254h213v-223q0 -123 -48 -190.5t-165 -94.5v143q45 10 60 39q10 20 10 72h-70z" />
<glyph unicode="&#x201c;" horiz-adv-x="823" d="M137 1004v219q0 123 45 186q51 72 166 96v-139q-45 -12 -59 -41q-10 -20 -10 -74h69v-247h-211zM471 1004v219q0 123 45 186q49 72 166 96v-137q-70 -23 -70 -117h70v-247h-211z" />
<glyph unicode="&#x201d;" horiz-adv-x="823" d="M137 973v139q45 12 60 39q10 20 10 72h-70v254h211v-222q0 -123 -45 -186q-49 -69 -166 -96zM471 975v137q45 10 59 39q10 20 11 72h-70v254h211v-222q0 -125 -46 -190t-165 -90z" />
<glyph unicode="&#x201e;" horiz-adv-x="823" d="M137 -2v254h211v-223q0 -123 -47 -190.5t-164 -94.5v143q45 12 60 39q10 20 10 72h-70zM471 -2v254h211v-223q0 -125 -45 -189q-47 -70 -166 -96v143q45 10 59 39q10 20 11 72h-70z" />
<glyph unicode="&#x2022;" horiz-adv-x="1222" d="M309 772q0 125 89 212t214 87q123 0 212 -88t89 -211t-90 -214t-213 -91t-212 91t-89 214z" />
<glyph unicode="&#x2026;" horiz-adv-x="2070" d="M242 -4v258h211v-258h-211zM930 -4v258h211v-258h-211zM1618 -4v258h211v-258h-211z" />
<glyph unicode="&#x2039;" horiz-adv-x="690" d="M127 559l254 315h158l-244 -319l244 -315h-158z" />
<glyph unicode="&#x203a;" horiz-adv-x="690" d="M152 240l245 315l-245 319h159l254 -315l-254 -319h-159z" />
<glyph unicode="&#x2122;" horiz-adv-x="1728" d="M246 1389v90h461v-90h-172v-459h-117v459h-172zM819 930v549h160l147 -381l142 381h153v-549h-102v428l-164 -428h-61l-166 428v-428h-109z" />
<glyph unicode="&#xe000;" horiz-adv-x="1050" d="M0 1050h1050v-1050h-1050v1050z" />
<glyph unicode="&#xfb01;" horiz-adv-x="962" d="M658 0v1053h194v-1053h-194zM658 1272v217h194v-217h-194zM39 874v179h117v198q0 176 94 254q84 72 264 72v-182q-92 0 -127 -31t-35 -121v-190h162v-179h-162v-874h-196v874h-117z" />
<glyph unicode="&#xfb02;" horiz-adv-x="964" d="M656 0v1577h194v-1577h-194zM39 874v179h117v198q0 176 94 254q84 72 264 72v-182q-92 0 -127 -31t-35 -121v-190h162v-179h-162v-874h-196v874h-117z" />
<glyph unicode="&#xfb03;" horiz-adv-x="1509" d="M1205 0v1053h194v-1053h-194zM1205 1272v217h194v-217h-194zM586 874v179h117v198q0 176 94 254q84 72 264 72v-182q-92 0 -127 -31t-35 -121v-190h162v-179h-162v-874h-196v874h-117zM39 874v179h117v198q0 176 94 254q84 72 264 72v-182q-92 0 -127 -31t-35 -121v-190 h162v-179h-162v-874h-196v874h-117z" />
<glyph unicode="&#xfb04;" horiz-adv-x="1511" d="M1203 0v1577h194v-1577h-194zM586 874v179h117v198q0 176 94 254q84 72 264 72v-182q-92 0 -127 -31t-35 -121v-190h162v-179h-162v-874h-196v874h-117zM39 874v179h117v198q0 176 94 254q84 72 264 72v-182q-92 0 -127 -31t-35 -121v-190h162v-179h-162v-874h-196v874 h-117z" />
</font>
</defs>
</svg>
